Login
Username:
Password:
Remember Me:
[Signup]
[Recover Account]
Friends
BTScene
Friendly site

Ale Torrenty Team
Friendly site

Anime RG
Friendly site

KaranPC
Friendly site

P2PDL.com
Friendly site

Free Tutorials & Courses
Friendly site
Torrent Details For "Murder On The Orient Express 2017 1080p BluRay AC3 5 1 x264 ESub"

Murder On The Orient Express 2017 1080p BluRay AC3 5 1 x264 ESub

To download this torrent, you need a BitTorrent client: Vuze or BTGuard
Download this torrent
Download using Magnet Link





Health:
Seeds: 3,526
Leechers: 2,473
Completed: 4,414 
Last Checked: 12-02-2018 13:37:10

Uploader Reputation points : 1848
External: Torrent




Write a Review for the Uploader:   10   Say Thanks with one good review:


Details
Name:Murder On The Orient Express 2017 1080p BluRay AC3 5 1 x264 ESub
Description:



General
Format                      : Matroska
Format version              : Version 4 / Version 2
File size                   : 1.54 GiB
Duration                    : 1 h 53 min
Overall bit rate            : 1 939 kb/s

Video
ID                          : 1
Format                      : AVC
Format/Info                 : Advanced Video Codec
Format profile              : [email protected]
Format settings             : CABAC / 4 Ref Frames
Format settings, CABAC      : Yes
Format settings, ReFrames   : 4 frames
Codec ID                    : V_MPEG4/ISO/AVC
Duration                    : 1 h 53 min
Bit rate                    : 1 700 kb/s
Width                       : 1 920 pixels
Height                      : 800 pixels
Display aspect ratio        : 2.40:1
Frame rate mode             : Constant
Frame rate                  : 23.976 (24000/1001) FPS
Color space                 : YUV
Chroma subsampling          : 4:2:0
Bit depth                   : 8 bits
Scan type                   : Progressive
Bits/(Pixel*Frame)          : 0.046
Stream size                 : 1.34 GiB (87%)
Writing library             : x264 core 148 r2708 86b7198
Default                     : Yes
Forced                      : No

Audio
ID                          : 3
Format                      : AC-3
Format/Info                 : Audio Coding 3
Codec ID                    : A_AC3
Duration                    : 1 h 53 min
Bit rate mode               : Constant
Bit rate                    : 256 kb/s
Channel(s)                  : 6 channels
Channel positions           : Front: L C R, Side: L R, LFE
Sampling rate               : 48.0 kHz
Frame rate                  : 31.250 FPS (1536 SPF)
Bit depth                   : 16 bits
Compression mode            : Lossy
Stream size                 : 209 MiB (13%)
Language                    : English
Service kind                : Complete Main
Default                     : Yes
Forced                      : No

Text
ID                          : 2
Format                      : UTF-8
Codec ID                    : S_TEXT/UTF8
Codec ID/Info               : UTF-8 Plain Text
Duration                    : 1 h 44 min
Bit rate                    : 72 b/s
Count of elements           : 1844
Stream size                 : 55.6 KiB (0%)
Language                    : English
Default                     : Yes
Forced                      : No













YouTube Video:
Category:Movies
Language:English  English
Total Size:1.54 GB
Info Hash:7289C31B198D033BBFA922FA198AF0EB65816878
Added By:MovieFreak Verified UploaderMovie Pirate
Date Added:11-02-2018 17:41:59
Torrent Status:Torrent Verified


Ratings:Not Yet Rated (Log in to rate it)


Tracker:
udp://tracker.coppersurfer.tk:6969/announce

This Torrent also has backup trackers
URLSeedersLeechersCompleted
udp://tracker.coppersurfer.tk:6969/announce313250383
udp://tracker.leechers-paradise.org:6969/announce400237649
udp://inferno.demonoid.pw:3391/announce261225204
udp://tracker.tntvillage.scambioetico.org:2710/announce000
udp://tracker.pirateparty.gr:6969/announce310247383
udp://9.rarbg.com:2770/announce000
udp://public.popcorn-tracker.org:6969/announce348231352
udp://tracker.zer0day.to:1337/announce219136208
http://bigfoot1942.sektori.org:6969/announce000
udp://ipv4.tracker.harry.lu:80/announce811990
udp://shadowshq.yi.org:6969/announce400235649
udp://tracker.vanitycore.co:6969/announce354183426
udp://tracker.opentrackr.org:1337/announce437290511
udp://explodie.org:6969/announce000
udp://tracker.zer0day.to:1337/announce219136208
udp://tracker.leechers-paradise.org:6969/announce400237649
udp://coppersurfer.tk:6969/announce000


File List: 



Warning! Do not Download Torrents Without a VPN!
Your IP Address is .   Location is
Your Internet Provider and Government can track your torrent Activity! Hide your IP ADDRESS with a VPN!
We strongly recommend using SpyOFF VPN to anonymize your Torrenting.It's FREE!
START YOUR FREE TRIAL NOW!


Comments
No comments still posted