GloDLS.to - Download Movies, TV, Games and Other Torrents Free RSS 2.0enGloDLS.to - Download Movies, TV, Games and Other Torrents FreeGloDLS.to - Download Movies, TV, Games and Other Torrents Free RSS Feedhttp://glodls.toCopyright GloDLS.to - Download Movies, TV, Games and Other Torrents FreeThu, 18 Jan 2018 23:56:15 +0000 Mothers.And.Sons.DiSC2.XXX.DVDRip.x264-WOP http://glodls.to/torrent.php?id=3129907 http://glodls.to/torrent.php?id=3129907 Thu, 18 Jan 2018 23:48:23 +0000 Adult XXX
{Duration} : 2 h 40 min
{Format} : MPEG-4
{Resolution} : 720 x 406 pixels
{Aspect Ratio} : 16:9
{Frame Rate} : 23.976 fps

[b]Thumbnails : -[/b]


[URL=https://www.sizzlingclicks.com/image/Y23hB][IMG]https://www.sizzlingclicks.com/images/2018/01/18/Y23hB.th.jpg[/IMG][/URL]
[b][URL]https://www.sizzlingclicks.com/image/Y23hB[/URL][/b]
[b][URL]https://www.sizzlingclicks.com/image/Y28oZ[/URL][/b]
[b][URL]https://www.sizzlingclicks.com/image/Y2gw7[/URL][/b]
[b][URL]https://www.sizzlingclicks.com/image/Y211d[/URL][/b] ]]>
Colette 18 01 17 Cherry Kiss Anal Cherry XXX 480p MP4-TK http://glodls.to/torrent.php?id=3129905 http://glodls.to/torrent.php?id=3129905 Thu, 18 Jan 2018 23:45:45 +0000 Adult XXX [b]Screenshots:[/b]

[url]http://imagerar.com/imgy-u/2018/5a6131aa122f0.jpeg.html[/url]

[url]http://imagerar.com/imgy-u/2018/5a6131aa121ff.jpeg.html[/url]

[url]http://imagerar.com/imgy-u/2018/5a6131aa120c0.jpeg.html[/url]

[url]http://imagerar.com/imgy-u/2018/5a6131a8d9fc9.jpeg.html[/url]

File Size : 171 MiB
Duration : 20mn 50s
Video : h264, yuv420p, 854x480p, 1024 Kbps
Audio : aac , 2 ch, stereo , 128 Kbps ]]>
Mothers.And.Sons.DiSC1.XXX.DVDRip.x264-WOP http://glodls.to/torrent.php?id=3129904 http://glodls.to/torrent.php?id=3129904 Thu, 18 Jan 2018 23:44:00 +0000 Adult XXX
{Duration} : 2 h 20 min
{Format} : MPEG-4
{Resolution} : 720 x 406 pixels
{Aspect Ratio} : 16:9
{Frame Rate} : 23.976 fps

[b]Thumbnails : -[/b]


[URL=https://www.sizzlingclicks.com/image/YyyVA][IMG]https://www.sizzlingclicks.com/images/2018/01/18/YyyVA.th.jpg[/IMG][/URL]
[b][URL]https://www.sizzlingclicks.com/image/YyyVA[/URL][/b]
[b][URL]https://www.sizzlingclicks.com/image/Yy4pW[/URL][/b]
[b][URL]https://www.sizzlingclicks.com/image/Yy7Rj[/URL][/b]
[b][URL]https://www.sizzlingclicks.com/image/YyVm8[/URL][/b] ]]>
Curves.For.Days.2.XXX.DVDRip.x264-BTRA http://glodls.to/torrent.php?id=3129901 http://glodls.to/torrent.php?id=3129901 Thu, 18 Jan 2018 23:32:49 +0000 Adult XXX
{Duration} : 2 h 11 min
{Format} : MPEG-4
{Resolution} : 720 x 406 pixels
{Aspect Ratio} : 16:9
{Frame Rate} : 23.976 fps

[b]Thumbnails : -[/b]


[URL=https://www.sizzlingclicks.com/image/Yy9w5][IMG]https://www.sizzlingclicks.com/images/2018/01/18/Yy9w5.th.jpg[/IMG][/URL]
[b][URL]https://www.sizzlingclicks.com/image/Yy9w5[/URL][/b]
[b][URL]https://www.sizzlingclicks.com/image/Yye1X[/URL][/b]
[b][URL]https://www.sizzlingclicks.com/image/YymcJ[/URL][/b]
[b][URL]https://www.sizzlingclicks.com/image/YysBY[/URL][/b] ]]>
WhippedAss.18.01.18.Aiden.Starr.And.Kimber.Woods.XXX.720p.MP4-KTR http://glodls.to/torrent.php?id=3129893 http://glodls.to/torrent.php?id=3129893 Thu, 18 Jan 2018 23:29:15 +0000 Adult XXX
{Duration} : 1 h 6 min
{Format} : MPEG-4
{Resolution} : 1280 x 720 pixels
{Aspect Ratio} : 16:9
{Frame Rate} : 29.970 fps

[b]Thumbnails : -[/b]


[URL=https://www.sizzlingclicks.com/image/YyvP2][IMG]https://www.sizzlingclicks.com/images/2018/01/18/YyvP2.th.jpg[/IMG][/URL]
[b][URL]https://www.sizzlingclicks.com/image/YyvP2[/URL][/b]
[b][URL]https://www.sizzlingclicks.com/image/YyweR[/URL][/b]
[b][URL]https://www.sizzlingclicks.com/image/YyJhE[/URL][/b]
[b][URL]https://www.sizzlingclicks.com/image/Yyfle[/URL][/b] ]]>
WhippedAss.18.01.18.Aiden.Starr.And.Kimber.Woods.XXX.720p.MP4-KTR[N1C] http://glodls.to/torrent.php?id=3129892 http://glodls.to/torrent.php?id=3129892 Thu, 18 Jan 2018 23:29:11 +0000 Adult XXX WhippedAss.18.01.18.Aiden.Starr.And.Kimber.Woods.XXX.720p.MP4-KTR


[Format]: MPEG-4
[Duration]: 1h 6mn
[Resolution]: 1 280 x 720 pixels
[Display aspect ratio]: 16:9
[Frame rate mode]: Constant
[Frame rate]: 29.970 fps


[color=green][b]#N1C -> To avoid fakes, ALWAYS check that the torrent was added by NO1CARES[/b][/color]




[color=green][b]Help us by donating with Bitcoin: 1Pgwp16gmLHmPzgjJLxZnMw7YeqiUekUoe[/b][/color]

[b]Screens...[/b]
[url]http://HotImage.uk/img-5a612d84e7cef.html[/url]
[url]http://HotImage.uk/img-5a612d850281d.html[/url]
[url]http://HotImage.uk/img-5a612d850bbf4.html[/url]
[url]http://HotImage.uk/img-5a612d8513d1b.html[/url] ]]>
HogTied.18.01.18.Cadence.Lux.XXX.720p.MP4-KTR[N1C] http://glodls.to/torrent.php?id=3129883 http://glodls.to/torrent.php?id=3129883 Thu, 18 Jan 2018 23:25:35 +0000 Adult XXX HogTied.18.01.18.Cadence.Lux.XXX.720p.MP4-KTR


[Format]: MPEG-4
[Duration]: 47mn 22s
[Resolution]: 1 280 x 720 pixels
[Display aspect ratio]: 16:9
[Frame rate mode]: Constant
[Frame rate]: 29.970 fps


[color=green][b]#N1C -> To avoid fakes, ALWAYS check that the torrent was added by NO1CARES[/b][/color]




[color=green][b]Help us by donating with Bitcoin: 1Pgwp16gmLHmPzgjJLxZnMw7YeqiUekUoe[/b][/color]

[b]Screens...[/b]
[url]http://HotImage.uk/img-5a612ca72eaf8.html[/url]
[url]http://HotImage.uk/img-5a612ca73a710.html[/url]
[url]http://HotImage.uk/img-5a612ca74368f.html[/url]
[url]http://HotImage.uk/img-5a612ca74b5a1.html[/url] ]]>
Paddington 2 2017 iTALiAN MD TS XviD-iSTANCE avi http://glodls.to/torrent.php?id=3129882 http://glodls.to/torrent.php?id=3129882 Thu, 18 Jan 2018 23:25:27 +0000 Movies [img]https://s9.postimg.org/46ay2sscv/Titolo.png[/img]
[b]Paddington 2 (2017).avi MD MP3 TELESYNC - iTA[/b]


[img]https://s5.postimg.org/fggxgflg7/pad2.png[/img]


[img]https://s9.postimg.org/wkgdm3fqn/Trama.png[/img]

Paddington è ormai un celebre membro di Windsow Gardens, la comunità in cui vive con la famiglia Brown. A caccia del regalo perfetto per il centenario di zia Lucy, il nostro simpatico e buffo amico trova un raro libro pop up in un negozietto di antiquariato. Dopo avere svolto una serie di lavoretti per tentare di comprarlo, il libro sparisce misteriosamente, scatenando l'orsacchiotto e la mitica famiglia Brown sulle tracce dell'astuto ladro che l’ha trafugato.


[img]https://s9.postimg.org/dqukpnujj/Cast.png[/img]

Hugh Grant, Hugh Bonneville, Brendan Gleeson, Sally Hawkins, Julie Walters, Jim Broadbent, Peter Capaldi, Richard Ayoade

[b][color=blue]Cast (voci originali)[/color][/b]: Ben Whishaw, Michael Gambon
[b][color=blue]Cast (voci italiane)[/color][/b]: Francesco Mandelli

[img]https://s9.postimg.org/r7rj8jkan/Scheda.png[/img]

[b]Titolo originale: [color=blue] Paddington 2 [/color][/b]
[b]Nazione[/b]: Regno Unito, Francia
[b]Anno[/b]: 2017
[b]Genere[/b]: Animazione
[b]Durata[/b]: 95'
[b]Regia[/b]: Paul King
[b]Sito ufficiale: [url]https://www.paddington.com/global[/url][/b]
[b]Produzione[/b]: Heyday Films, Marmalade Films Ltd., StudioCanal
[b]Distribuzione[/b]: Eagle Pictures
[b]Data di uscita[/b]: 09 Novembre 2017 (cinema)

[img]https://s9.postimg.org/9vr6miqn3/Screenshots.png[/img]

[url=https://postimg.org/image/t0puikq7v/][img]https://s9.postimg.org/t0puikq7v/vlcsnap_2018_01_18_21h44m29s127.png[/img][/url]
[url=https://postimg.org/image/963swgqfv/][img]https://s9.postimg.org/963swgqfv/vlcsnap_2018_01_18_21h44m31s424.png[/img][/url]
[url=https://postimg.org/image/mzs5liygr/][img]https://s9.postimg.org/mzs5liygr/vlcsnap_2018_01_18_21h44m37s153.png[/img][/url]

[img]https://s9.postimg.org/coke74jfz/Report.png[/img]

[ Info sul file ]

Nome: Paddington.2.2017.iTALiAN.MD.TS.XviD-iSTANCE.avi
Data: Thu, 18 Jan 2018 21:36:05 +0100
Dimensione: 1,429,773,822 bytes (1363.538572 MiB)

[ Magic ]

Tipo file: RIFF (little-endian) data, AVI, 720 x 320, 30.00 fps, video: XviD, audio: MPEG-1 Layer 3 (stereo, 48000 Hz)

[ Info generiche ]

Durata: 01:40:01 (6001.093999 s)
Contenitore: AVI OpenDML
L'AVI ha un indice?: Sì
Totale tracce: 2
Traccia n. 0: video
Traccia n. 1: audio
Junk: VirtualDub build 32842/release

[ Dati rilevanti ]

Risoluzione: 720 x 320
Larghezza: multipla di 16
Altezza: multipla di 32
DRF medio: 2.340245
Deviazione standard: 1.024295
Media pesata dev. std.: 0.789025

[ Traccia video ]

FourCC: xvid/XVID
Risoluzione: 720 x 320
Frame aspect ratio: 9:4 = 2.25
Pixel aspect ratio: 1:1 = 1
Display aspect ratio: 9:4 = 2.25
Framerate: 30.00003 fps
Totale frames: 180,033
Dimensione stream: 1,324,863,921 bytes (1263.488694 MiB)
Bitrate: 1766.163198 kbps
Qf: 0.255521
Key frames: 1,674 (0; 171; 265; 266; 282; ... 179764)
Null frames: 0
Min key int: 1
Max key int: 300
Avg key int: 107.546595
Ritardo: 0 ms

[ Traccia audio ]

Audio tag: 0x55 (MP3)
Canali: 2
Chunks: 180,019
Dimensione stream: 96,017,504 bytes (91.569427 MiB)
Tipo di bitstream (bs): MPEG-1 Layer III
Encoder (bs): LAME3.99r
Frames (bs): 250,045
Durata: 01:40:01 (6001.08 s)
Chunk-aligned (bs): No
Bitrate (bs): 128 kbps CBR
Freq. campionamento (bs): 48000 Hz
Modo (bs): joint stereo
Padding (bs): No
Emphasis (bs): none
Final skip (bs): 224 bytes
Preload: 480 ms
Max A/V diff: 500 ms
Ritardo: 0 ms

[ Bitstream video ]

Tipo di bitstream: MPEG-4 Part 2
User data: DivX503b1393p
User data: XviD0067
Packed bitstream: Sì (*)
QPel: No
GMC: No
Interlacciamento: No
Aspect ratio: Square pixels
Quant type: MPEG
Totale frames: 180,033
Drop/delay frames: 0
Frames corrotti: 0

I-VOPs: 1674 ( 0.930 %)
P-VOPs: 63338 ( 35.180 %) #######
B-VOPs: 115029 ( 63.890 %) #############
S-VOPs: 0 ( 0.000 %)
N-VOPs: 0 ( 0.000 %)

Max B-VOPs consecutivi: 2
1 consec: 7687 ( 12.528 %) ###
2 consec: 53671 ( 87.472 %) #################

[ Analisi DRF ]

DRF nedio: 2.340245
deviazione standard: 1.024295
max DRF: 13

DRF=1: 38201 ( 21.218 %) ####
DRF=2: 71469 ( 39.696 %) ########
DRF=3: 45914 ( 25.502 %) #####
DRF=4: 21026 ( 11.678 %) ##
DRF=5: 2755 ( 1.530 %)
DRF=6: 380 ( 0.211 %)
DRF=7: 223 ( 0.124 %)
DRF=8: 19 ( 0.011 %)
DRF=9: 18 ( 0.010 %)
DRF>9: 36 ( 0.020 %)

I-VOPs DRF medio: 1.464158
I-VOPs deviazione std.: 0.78682
I-VOPs max DRF: 8

P-VOPs DRF medio: 1.484149
P-VOPs deviazione std.: 0.641372
P-VOPs max DRF: 8

B-VOPs DRF medio: 2.824383
B-VOPs deviazione std.: 0.870359
B-VOPs max DRF: 13

[ Conformità al profilo ]

Profilo selezionato: MTK PAL 6000
Risoluzione: Ok
Framerate: 30.00003 <> 25
Min riempimento buffer: 80%

Rapporto creato da AVInaptic (18-12-2011) in data 18-01-2018 00:00:00
[/center] ]]>
Colette.18.01.17.Cherry.Kiss.Anal.Cherry.XXX.1080p.MP4-KTR[N1C] http://glodls.to/torrent.php?id=3129881 http://glodls.to/torrent.php?id=3129881 Thu, 18 Jan 2018 23:25:12 +0000 Adult XXX Colette.18.01.17.Cherry.Kiss.Anal.Cherry.XXX.1080p.MP4-KTR


[Format]: MPEG-4
[Duration]: 20mn 50s
[Resolution]: 1 920 x 1 088 pixels
[Display aspect ratio]: 16:9
[Frame rate mode]: Variable
[Frame rate]: 23.976 fps
[Minimum frame rate]: 23.974 fps
[Maximum frame rate]: 23.981 fps


[color=green][b]#N1C -> To avoid fakes, ALWAYS check that the torrent was added by NO1CARES[/b][/color]




[color=green][b]Help us by donating with Bitcoin: 1Pgwp16gmLHmPzgjJLxZnMw7YeqiUekUoe[/b][/color]

[b]Screens...[/b]
[url]http://HotImage.uk/img-5a612c95bccf1.html[/url]
[url]http://HotImage.uk/img-5a612c95d0d28.html[/url]
[url]http://HotImage.uk/img-5a612c9640074.html[/url]
[url]http://HotImage.uk/img-5a612c964e701.html[/url] ]]>
HogTied.18.01.18.Cadence.Lux.XXX.720p.MP4-KTR http://glodls.to/torrent.php?id=3129880 http://glodls.to/torrent.php?id=3129880 Thu, 18 Jan 2018 23:25:04 +0000 Adult XXX
{Duration} : 47 min 22 s
{Format} : MPEG-4
{Resolution} : 1280 x 720 pixels
{Aspect Ratio} : 16:9
{Frame Rate} : 29.970 fps

[b]Thumbnails : -[/b]


[URL=https://www.sizzlingclicks.com/image/YyBcC][IMG]https://www.sizzlingclicks.com/images/2018/01/18/YyBcC.th.jpg[/IMG][/URL]
[b][URL]https://www.sizzlingclicks.com/image/YyBcC[/URL][/b]
[b][URL]https://www.sizzlingclicks.com/image/YyQB0[/URL][/b]
[b][URL]https://www.sizzlingclicks.com/image/Yyb7K[/URL][/b]
[b][URL]https://www.sizzlingclicks.com/image/YyWpu[/URL][/b] ]]>
My Little Pony Il Film 2017 iTALiAN MD BDRip XviD-iND avi http://glodls.to/torrent.php?id=3129879 http://glodls.to/torrent.php?id=3129879 Thu, 18 Jan 2018 23:24:29 +0000 Movies [b]My Little Pony: Il Film (2017).avi MD MP3 BDRip - iTA[/b]



[b][color=red] My Little Pony: The Movie [/color][/b]

[img]https://s13.postimg.org/tsjqxvvbr/My_Little_Pony_-_Il_Film.jpg[/img]


[img]https://s9.postimg.org/mzwqz9vkf/info.png[/img]

[b]Regia[/b]: Jayson Thiessen
[b]Durata[/b]: 99 min
[b]Cast[/b]: Emily Blunt, Lorella Cuccarini, Uzo Aduba, Ashleigh Ball, Kristin Chenoweth.
[b]Genere[/b]: Animazione
[b]Nazione[/b]: USA, Canada (2017)
[b]Distribuzione[/b]: Eagle Pictures
[b]Data uscita in Italia[/b]: mercoledì 6 dicembre 2017
[b]Altri dettagli su[/b]: [url=http://www.mymovies.it/film/2017/mylittleponythemovie/][b][color=blue]MYmovies.it[/color][/b][/url]


[img]https://s9.postimg.org/yc9ch2ren/trama.png[/img]

Twilight Sparkle, principessa dell'amicizia, deve organizzare una festa insieme alle fedeli amiche Rainbow Dash, AppleJack, Pinkie Pie, Fluttershy e Rarity. Ma l'arrivo di Tempest Shadow, un pony dal corno spezzato, crea scompiglio fra le principesse, alcune delle quali finiscono pietrificate. L'eroica Twilight dovrà cercare di salvare tanto loro quanto Equestria, minacciata da una forza oscura, cercando aiuto nel Palazzo degli Ippogrifi.


[img]https://s9.postimg.org/zejizlusf/screen.png[/img]

[url=https://postimg.org/image/vptu09py3/][img]https://s9.postimg.org/vptu09py3/My.Little.Pony.Il.Film.2017.i_TALi_AN.MD.BDRip.Xvi_D-i_ND.avi_snapsh.jpg[/img][/url]
[url=https://postimg.org/image/x4vep06gr/][img]https://s9.postimg.org/x4vep06gr/My.Little.Pony.Il.Film.2017.i_TALi_AN.MD.BDRip.Xvi_D-i_ND.avi_snapsh.jpg[/img][/url]
[url=https://postimg.org/image/8od8ujdfv/][img]https://s9.postimg.org/8od8ujdfv/My.Little.Pony.Il.Film.2017.i_TALi_AN.MD.BDRip.Xvi_D-i_ND.avi_snapsh.jpg[/img][/url]
[url=https://postimg.org/image/9qnfd3bor/][img]https://s9.postimg.org/9qnfd3bor/My.Little.Pony.Il.Film.2017.i_TALi_AN.MD.BDRip.Xvi_D-i_ND.avi_snapsh.jpg[/img][/url]

[b]
My.Little.Pony.Il.Film.2017.iTALiAN.MD.BDRip.XviD-iND.avi

Video: AVi, 720x302 @ 1 558 kb/s
Audio: MD Mp3@ 128 kb/s , stereo
Versione: iND
[/b]

[img]https://s9.postimg.org/g9g9punu7/report.png[/img]

[ Info sul file ]

Nome: My.Little.Pony.Il.Film.2017.iTALiAN.MD.BDRip.XviD-iND.avi
Data: Thu, 18 Jan 2018 21:54:19 +0100
Dimensione: 1,452,016,586 bytes (1384.750842 MiB)

[ Magic ]

Tipo file: RIFF (little-endian) data, AVI, 720 x 302, 23.976 fps, video: XviD, audio: MPEG-1 Layer 3 (stereo, 48000 Hz)

[ Info generiche ]

Durata: 01:38:29 (5929.846219 s)
Contenitore: AVI OpenDML
L'AVI ha un indice?: Sì
Totale tracce: 2
Traccia n. 0: video
Traccia n. 1: audio
Junk: VirtualDub build 32842/release

[ Dati rilevanti ]

Risoluzione: 720 x 302
Larghezza: multipla di 16
Altezza: multipla di 2
DRF medio: 18.135635
Deviazione standard: 2.61788
Media pesata dev. std.: 2.41222

[ Traccia video ]

FourCC: xvid/XVID
Risoluzione: 720 x 302
Frame aspect ratio: 72:31 = 2.322581 (~2.35:1)
Pixel aspect ratio: 1:1 = 1
Display aspect ratio: 72:31 = 2.322581 (~2.35:1)
Framerate: 23.976 fps
Totale frames: 133,715
Dimensione stream: 1,289,236,146 bytes (1226.018646 MiB)
Bitrate: 1558.8643 kbps
Qf: 0.388365
Key frames: 6,321 (0; 24; 47; 71; 95; ... 133706)
Null frames: 0
Min key int: 1
Max key int: 24
Avg key int: 21.15409
Ritardo: 0 ms

[ Traccia audio ]

Audio tag: 0x55 (MP3)
Canali: 2
Chunks: 133,705
Dimensione stream: 91,846,489 bytes (88.846166 MiB)
Tipo di bitstream (bs): MPEG-1 Layer III
Encoder (bs): LAME3.99r
Frames (bs): 232,376
Durata: 01:38:29 (5929.846219 s)
Chunk-aligned (bs): No
Bitrate (bs): 128 kbps CBR
Freq. campionamento (bs): 48000 Hz
Modo (bs): joint stereo
Padding (bs): No
Emphasis (bs): none
Final skip (bs): 93 bytes
Preload: 480 ms
Max A/V diff: 500 ms
Ritardo: 0 ms

[ Bitstream video ]

Tipo di bitstream: MPEG-4 Part 2
User data: DivX503b1393p
User data: XviD0073
Packed bitstream: Sì (*)
QPel: Sì
GMC: No
Interlacciamento: No
Aspect ratio: Square pixels
Quant type: H.263
Totale frames: 119,625
Drop/delay frames: 0
Frames corrotti: 0

I-VOPs: 1430 ( 1.195 %)
P-VOPs: 43590 ( 36.439 %) #######
B-VOPs: 74606 ( 62.366 %) ############
S-VOPs: 0 ( 0.000 %)
N-VOPs: 0 ( 0.000 %)

Max B-VOPs consecutivi: 2
1 consec: 6648 ( 16.364 %) ###
2 consec: 33979 ( 83.636 %) #################

[ Analisi DRF ]

DRF nedio: 18.135635
deviazione standard: 2.61788
max DRF: 26

DRF=1: 3 ( 0.002 %)
DRF=2: 38 ( 0.030 %)
DRF=3: 57 ( 0.045 %)
DRF=4: 34 ( 0.027 %)
DRF=5: 38 ( 0.030 %)
DRF=6: 74 ( 0.058 %)
DRF=7: 111 ( 0.087 %)
DRF=8: 215 ( 0.168 %)
DRF=9: 331 ( 0.259 %)
DRF=10: 448 ( 0.350 %)
DRF=11: 741 ( 0.579 %)
DRF=12: 1203 ( 0.940 %)
DRF=13: 2218 ( 1.733 %)
DRF=14: 4197 ( 3.279 %) #
DRF=15: 7325 ( 5.723 %) #
DRF=16: 11734 ( 9.167 %) ##
DRF=17: 17626 ( 13.771 %) ###
DRF=18: 21005 ( 16.410 %) ###
DRF=19: 21260 ( 16.610 %) ###
DRF=20: 18117 ( 14.154 %) ###
DRF=21: 12109 ( 9.460 %) ##
DRF=22: 5703 ( 4.456 %) #
DRF=23: 2172 ( 1.697 %)
DRF=24: 984 ( 0.769 %)
DRF=25: 196 ( 0.153 %)
DRF=26: 12 ( 0.009 %)
DRF>26: 0 ( 0.000 %)

P-slices DRF medio: 17.070612
P-slices deviazione std.: 2.411326
P-slices max DRF: 25

B-slices DRF medio: 19.086869
B-slices deviazione std.: 2.417363
B-slices max DRF: 26

I-slices DRF medio: 15.774834
I-slices deviazione std.: 1.921203
I-slices max DRF: 22

[ Conformità al profilo ]

Profilo selezionato: MTK PAL 6000
Risoluzione: Ok
Framerate: 24.000 <> 25
Min riempimento buffer: 68%

Rapporto creato da AVInaptic (18-12-2011) in data 18-01-2018 21:51:48
[/center] ]]>
YTD Video Downloader Pro 5 9 2 0 1 + Patch http://glodls.to/torrent.php?id=3129878 http://glodls.to/torrent.php?id=3129878 Thu, 18 Jan 2018 23:23:56 +0000 Books
YouTube Downloader allows you to download videos from YouTube, including HD and HQ videos, Facebook, Vevo, and dozens of other video sites and convert them to other video formats. The program is easy to use--just specify the URL for the video you want to download and click the Download button. The program also allows you to convert downloaded videos for iPod, iPhone, PSP, Cell Phone, Windows Media, XVid and MP3, or play video that you have previously downloaded or converted.

FEATURES -

Get High Definition Video
Download High-Def (HD) 1080P videos from YouTube and all other major video streaming sites with YouTube Downloader. Watching HD YouTube videos from your laptop or mobile device with our YouTube converter has never been easier!

Download and Watch Later
Never worry about missing a video, or having to watch YouTube clips on their time. With YouTube Downloader, you can save videos. Our software acts as a YouTube converter as well, and lets you convert YouTube videos easily, viewing them at any time you want!

Converter Works with Most Formats
YouTube Downloader's unique software downloads content from all the major video streaming sites, not only YouTube. It also acts as a YouTube Converter, where you can convert your movie files into any number of formats, including YouTube to MP3, MP4, 3GP, MPEG and even YouTube to AVI. View All.

Watch on Other Devices
When you download YouTube videos using our free YouTube Downloader, it doesn't mean you have to watch them on one device. YouTube Downloader is a video converter that turns files into playable, portable video formats - so you can convert YouTube to iPod, iPhone, PSP and even YouTube to iTunes. View All.

It's Fast and Easy to Use
The YouTube Downloader interface is intuitive and easy to use. Users simply copy and paste a video URL, then click the Download button.

Video Player Integrated
Our free YouTube Converter will also save files onto its extensive database, allowing you to build a player to categorize and sort your favorite videos, just like you would using iTunes! ]]>
Mollys Game 2017 FRENCH DVDSCR MD XViD-STVFRV avi http://glodls.to/torrent.php?id=3129877 http://glodls.to/torrent.php?id=3129877 Thu, 18 Jan 2018 23:23:41 +0000 Movies [b]Le Grand jeu - Qualité DVDSCR MD | TRUEFRENCH[/b]


[b][color=red] Molly's Game [/color][/b]

[img]http://funkyimg.com/i/2Bo53.jpg[/img]

[url=http://www.imdb.com/title/tt4209788/][img]http://funkyimg.com/i/2Bg1r.png[/img][/url]

[img]https://s9.postimg.org/v5esxkha7/film.png[/img]

[b]En Salle de Cinéma le[/b] : 3 janvier 2018
[b]Origine [/b]: Américain (2017)
[b]Réalisation [/b]: Aaron Sorkin
[b]Durée [/b]: 2h 20min
[b]Acteur(s) [/b]: Jessica Chastain,Idris Elba,Kevin Costner
[b]Genre [/b]: Drame,Biopic


[img]https://s9.postimg.org/5zduqqvfj/synopsis.png[/img]

La prodigieuse histoire vraie d’une jeune femme surdouée devenue la reine d’un gigantesque empire du jeu clandestin à Hollywood ! En 2004, la jeune Molly Bloom débarque à Los Angeles. Simple assistante, elle épaule son patron qui réunit toutes les semaines des joueurs de poker autour de parties clandestines. Virée sans ménagement, elle décide de monter son propre cercle : la mise d’entrée sera de 250 000 $ ! Très vite, les stars hollywoodiennes, les millionnaires et les grands sportifs accourent. Le succès est immédiat et vertigineux. Acculée par les agents du FBI décidés à la faire tomber, menacée par la mafia russe décidée à faire main basse sur son activité, et harcelée par des célébrités inquiètes qu’elle ne les trahisse, Molly Bloom se retrouve prise entre tous les feux…


[img]https://s9.postimg.org/ryk9dxp4f/details.png[/img]
[b]
[color=red]Proche du DVDRiP. En attendant des autres versions[/color]
[color=blue]Vidéo : 9 - Audio : 7[/color]

Nom de Release: Mollys.Game.2017.FRENCH.DVDSCR.MD.XViD-STVFRV
Taille: 1.77 Gio
Language: [img]https://s9.postimg.org/ay1d5bwof/image.png[/img]

Video: AVi, 720×288 @ 1553 Kbps
Audio: FR MD Mp3 @ 128 kb/s, stereo
Sous-titres: N/A

Hébergeur : [img]https://s9.postimg.org/cd2xu2kwv/seedboxred.png[/img]
[/b]

[URL=http://funkyimg.com/view/2Bo55][IMG]http://funkyimg.com/i/2Bo55.jpg[/IMG][/URL]


[url=http://pastehere.xyz/45776/][img]https://s9.postimg.org/o26xhxopb/info.png[/img][/url]


[img]https://s9.postimg.org/iqs0x8xhr/restez_en_seed.png[/img]
[/center] ]]>
YTD Video Downloader Pro 5 9 2 0 1 + Crack http://glodls.to/torrent.php?id=3129876 http://glodls.to/torrent.php?id=3129876 Thu, 18 Jan 2018 23:22:35 +0000 Apps

YouTube Downloader allows you to download videos from YouTube, including HD and HQ videos, Facebook, Vevo, and dozens of other video sites and convert them to other video formats. The program is easy to use--just specify the URL for the video you want to download and click the Download button. The program also allows you to convert downloaded videos for iPod, iPhone, PSP, Cell Phone, Windows Media, XVid and MP3, or play video that you have previously downloaded or converted.


FEATURES -
Get High Definition Video
Download High-Def (HD) 1080P videos from YouTube and all other major video streaming sites with YouTube Downloader. Watching HD YouTube videos from your laptop or mobile device with our YouTube converter has never been easier!

Download and Watch Later
Never worry about missing a video, or having to watch YouTube clips on their time. With YouTube Downloader, you can save videos. Our software acts as a YouTube converter as well, and lets you convert YouTube videos easily, viewing them at any time you want!

Converter Works with Most Formats
YouTube Downloader's unique software downloads content from all the major video streaming sites, not only YouTube. It also acts as a YouTube Converter, where you can convert your movie files into any number of formats, including YouTube to MP3, MP4, 3GP, MPEG and even YouTube to AVI. View All.

Watch on Other Devices
When you download YouTube videos using our free YouTube Downloader, it doesn't mean you have to watch them on one device. YouTube Downloader is a video converter that turns files into playable, portable video formats - so you can convert YouTube to iPod, iPhone, PSP and even YouTube to iTunes. View All.

It's Fast and Easy to Use
The YouTube Downloader interface is intuitive and easy to use. Users simply copy and paste a video URL, then click the Download button.

Video Player Integrated
Our free YouTube Converter will also save files onto its extensive database, allowing you to build a player to categorize and sort your favorite videos, just like you would using iTunes! ]]>
Colette.18.01.17.Cherry.Kiss.Anal.Cherry.XXX.1080p.MP4-KTR http://glodls.to/torrent.php?id=3129875 http://glodls.to/torrent.php?id=3129875 Thu, 18 Jan 2018 23:22:33 +0000 Adult XXX
{Duration} : 20 min 50 s
{Format} : MPEG-4
{Resolution} : 1920 x 1088 pixels
{Aspect Ratio} : 16:9
{Frame Rate} : 23.976 fps

[b]Thumbnails : -[/b]


[URL=https://www.sizzlingclicks.com/image/YyTXw][IMG]https://www.sizzlingclicks.com/images/2018/01/18/YyTXw.th.jpg[/IMG][/URL]
[b][URL]https://www.sizzlingclicks.com/image/YyTXw[/URL][/b]
[b][URL]https://www.sizzlingclicks.com/image/YydlM[/URL][/b]
[b][URL]https://www.sizzlingclicks.com/image/Yytwq[/URL][/b]
[b][URL]https://www.sizzlingclicks.com/image/YyNqb[/URL][/b] ]]>
Godzilla Monster Planet Part 1 2018 720p HDRip DD 5 1 x264 http://glodls.to/torrent.php?id=3129874 http://glodls.to/torrent.php?id=3129874 Thu, 18 Jan 2018 23:21:34 +0000 Movies [url=http://pichub.site/image/Cuzt][img]http://pichub.site/images/2018/01/18/DOzXr79WAAA32f7.jpg[/img][/url]
[b]
General
Format : Matroska
Format version : Version 4 / Version 2
File size : 1.13 GiB
Duration : 1 h 28 min
Overall bit rate : 1 834 kb/s

Video
ID : 1
Format : AVC
Format/Info : Advanced Video Codec
Format profile : High@L4.1
Format settings : CABAC / 4 Ref Frames
Format settings, CABAC : Yes
Format settings, ReFrames : 4 frames
Codec ID : V_MPEG4/ISO/AVC
Duration : 1 h 28 min
Bit rate : 1 600 kb/s
Width : 1 280 pixels
Height : 712 pixels
Display aspect ratio : 16:9
Frame rate mode : Constant
Frame rate : 24.000 FPS
Color space : YUV
Chroma subsampling : 4:2:0
Bit depth : 8 bits
Scan type : Progressive
Bits/(Pixel*Frame) : 0.073
Stream size : 998 MiB (86%)
Writing library : x264 core 148 r2708 86b7198
Default : Yes
Forced : No

Audio
ID : 2
Format : AC-3
Format/Info : Audio Coding 3
Codec ID : A_AC3
Duration : 1 h 28 min
Bit rate mode : Constant
Bit rate : 256 kb/s
Channel(s) : 6 channels
Channel positions : Front: L C R, Side: L R, LFE
Sampling rate : 48.0 kHz
Frame rate : 31.250 FPS (1536 SPF)
Bit depth : 16 bits
Compression mode : Lossy
Stream size : 162 MiB (14%)
Language : English
Service kind : Complete Main
Default : Yes
Forced : No



[/b]
[url=http://pichub.site/image/CmY6]http://pichub.site/image/CmY6[/url]
[url=http://pichub.site/image/CG54]http://pichub.site/image/CG54[/url]
[url=http://pichub.site/image/CNjp]http://pichub.site/image/CNjp[/url]
[url=http://pichub.site/image/Cvwy]http://pichub.site/image/Cvwy[/url]
[url=http://pichub.site/image/Cxxb]http://pichub.site/image/Cxxb[/url]
[url=http://pichub.site/image/C0T0]http://pichub.site/image/C0T0[/url]
[/center]
]]>
Wondershare Video Converter Ultimate 10 2 0 154 + Patch http://glodls.to/torrent.php?id=3129873 http://glodls.to/torrent.php?id=3129873 Thu, 18 Jan 2018 23:21:23 +0000 Apps
Much more than a converter - your complete video toolbox. Convert, edit, enhance, download, burn, organize, capture, and watch - in over 150 formats. Enjoying your videos just got simpler. Now you can watch anytime, anywhere. Alter, enhance, convert - whatever you do - the final result will be in perfect quality ( even in high-definition or 3D) no missing key frames, redraw issues, or crashes.

Key Features:
- All-in-One DVD Video Converter
- Universal DVD and Video Converter
- Convert DRM protected files to common media files
- Total playback freedom on almost all video/audio portable devices
- Amazing Video to DVD Converter
- Professional video download and transfer
- Download videos from online video sharing websites
- Transfer media files bwteen PC and portable devices
- Amazing video/DVD editor
- Crop, adjust video effect, and add watermark/subtitle with two real-time preview windows
- Clip video file/DVD chapter
- Merge multiple files
- Customize DVD menu
- Capture picture
- Customizable output profile for your every need
- Flexible output video/audio settings
- Apply more than one profile to one file
- Easy operation and free technical support
- Easy-to-use ]]>
Wondershare PDFelement Professional 6 3 5 2806 + Patch http://glodls.to/torrent.php?id=3129872 http://glodls.to/torrent.php?id=3129872 Thu, 18 Jan 2018 23:19:54 +0000 Apps
Brand New Design
Work better, faster and easier with a revamped design consistent across Windows and Mac. form data automation

Form Data Automation
Empower your business workflow with advanced form automation and data extraction technology. text editing

Smarter, Faster Text Editing
Get an extremely smooth text editing experience that is like Microsoft Word™.

The Complete PDF Solution
Get everything you need to create, convert, edit and sign PDFs. Best of all, it's affordable.

Edit PDFs like Word
It's never been easier to edit any Microsoft™ office files without compromising formatting & style.

Smarter Editing
Take control of your Office documents by adjusting or changing the font type, size and style, without losing font and formatting.

OCR
Use a robust Optical Character Recognition feature to free text from scans and photos and transform it into editable, searchable and selectable PDFs.

Text Autofit
Automatically reflow text when altering paragraphs in single line or paragraph mode.

Spell Check
Fix typos and other small mistakes highlighted for you with automated spelling error detection.

Create Fillable PDF Forms
Turn any non-fillable form made in Word, Excel or other Office applications into a fillable, editable PDF with just one click.

Export Form Data into Excel
Use our intelligent form automation technology to extract PDF form data from hundreds of identical forms into a single, accessible Excel sheet within seconds.

Export Data from Scanned PDFs
Use advanced OCR technology to quickly and accurately convert piles of paper documents into archive- and analysis-friendly Office files.

Templates
Create your own form template. Or draw from PDFelement's library of 8000+ forms used commonly across a range of departments and industries.

Create from Files
Create professional-looking PDFs from all the popular Office file types, plus 300+ other file types, and images, like JPEG, TIFF and PNG.

Speedy PDF Creation
Combine hundreds of files in different file types into a single PDF.

Reorder, Split, Add
Manage drag-and-droppable page thumbnails in an enlarged window to add, split, delete, and reorder pages.

Bates Numbering
Add customizable Bates Numbering to documents for easy indexing and retrieval.

Convert
Transform PDFs into various file types, like Microsoft™ Word, Excel, PowerPoint, HTML, JPEG and more with a simple click.

Split PDFs
Split large PDFs into multiple smaller ones and save them into multiple file formats.

Extract Pages
Pick a single page or range of pages from a document and convert them into a separate PDF.

Batch Convert
Turn multiple PDF files into Microsoft™ Word, Excel, PowerPoint formats and more all at one time.

Password Protection
Password protect PDF files with nearly unbreakable 256-bit AES encryption. Customizable controls let you lock specific functions like view, print, edit, fill and rotate.

Redaction
Click-and-drag to permanently conceal text and images with user-selected colors. Then add custom overlay text or redaction codes.

Sign
Create and manage digital signatures to approve and sign documents electronically.

Share
Share your protected, digitally signed PDFs directly via Dropbox, or click to send them as an email attachment.

Annotate
Collaborate on PDFs by adding sticky note comments and text boxes anywhere you like.

Markup
Markup documents for reviewing with highlight, cross-out, underline and other text tools.

Shapes
Use custom images and hand drawing tools to create familiar shapes -- like lines, rectangles and arrows.

Stamps
Insert commonly used stamps, like "sign here"flags and "approved". Or customized your own stamps and save them for later.

[img]https://s1.postimg.org/2mnokpj6jz/u7_LP17_QLu8_BD0_Juk_S8l8e_BNTZe4_PRNZl.jpg[/img] ]]>
The Lucky Man 2018 1080p WEB-DL DD 5 1 x264 http://glodls.to/torrent.php?id=3129871 http://glodls.to/torrent.php?id=3129871 Thu, 18 Jan 2018 23:13:39 +0000 Movies [url=http://pichub.site/image/CrEV][img]http://pichub.site/images/2018/01/18/MV5BMDQzOGQ2MDMtMTNmOS00MmFlLWE5MmEtZWMwNzU4ZDEwODI3XkEyXkFqcGdeQXVyMTQ2OTU2OTQ._V1_QL50_SY999_CR00656999_AL_b9a44.jpg[/img][/url]
[b]

General
Format : Matroska
Format version : Version 4 / Version 2
File size : 1.44 GiB
Duration : 1 h 36 min
Overall bit rate : 2 141 kb/s

Video
ID : 1
Format : AVC
Format/Info : Advanced Video Codec
Format profile : High@L4.1
Format settings : CABAC / 4 Ref Frames
Format settings, CABAC : Yes
Format settings, ReFrames : 4 frames
Codec ID : V_MPEG4/ISO/AVC
Duration : 1 h 36 min
Bit rate : 1 883 kb/s
Nominal bit rate : 2 000 kb/s
Width : 1 912 pixels
Height : 1 072 pixels
Display aspect ratio : 16:9
Frame rate mode : Constant
Frame rate : 23.976 (24000/1001) FPS
Color space : YUV
Chroma subsampling : 4:2:0
Bit depth : 8 bits
Scan type : Progressive
Bits/(Pixel*Frame) : 0.038
Stream size : 1.27 GiB (88%)
Writing library : x264 core 148 r2708 86b7198
Default : Yes
Forced : No

Audio
ID : 2
Format : AC-3
Format/Info : Audio Coding 3
Codec ID : A_AC3
Duration : 1 h 36 min
Bit rate mode : Constant
Bit rate : 256 kb/s
Channel(s) : 6 channels
Channel positions : Front: L C R, Side: L R, LFE
Sampling rate : 48.0 kHz
Frame rate : 31.250 FPS (1536 SPF)
Bit depth : 16 bits
Compression mode : Lossy
Stream size : 176 MiB (12%)
Language : English
Service kind : Complete Main
Default : Yes
Forced : No


[/b]
[url=http://pichub.site/image/ComT]http://pichub.site/image/ComT[/url]
[url=http://pichub.site/image/CpsN]http://pichub.site/image/CpsN[/url]
[url=http://pichub.site/image/C5aD]http://pichub.site/image/C5aD[/url]
[url=http://pichub.site/image/ClzZ]http://pichub.site/image/ClzZ[/url]
[url=http://pichub.site/image/C65g]http://pichub.site/image/C65g[/url]
[url=http://pichub.site/image/CPqI]http://pichub.site/image/CPqI[/url]
[/center]
]]>
WinZip Pro 22 0 Build 12706 (x86+x64) + Keygen http://glodls.to/torrent.php?id=3129869 http://glodls.to/torrent.php?id=3129869 Thu, 18 Jan 2018 23:08:06 +0000 Apps
[color=#33cc33][color=#33cc33]WinZip 22 is the world’s most popular Windows Zip utility for file compression, file sharing, file encryption, and data backup. No other file compression utility is as easy to use or offers such a comprehensive and innovative feature set to help you save time, conserve space, and improve productivity. Moreover, you can instantly compress files to conserve storage space, send swifter emails, and decrease file upload/download times. Zip documents, spreadsheets, PDFs, presentations, you name it! You can quickly zip and unzip files to conserve storage space, speed up e-mail transmission, and reduce download times.

In addition, WinZip offers strong AES encryption for securing sensitive data, the ability to bundle files into convenient, compressed packages, and an automated data backup facility to prevent data loss.
WinZip even supports photo and image compression. Now you can compress your digital photographs and graphic images by 20 to 25% with no loss of photo quality or data integrity. This lets you send pictures faster and fit more on your flash drive, CD/DVD, or hard disk.

Features :

Compress:
• Compress files to save space and reduce transmission times
• Create Zip, LHA, and new Zipx files – the smallest Zip files ever
• Let WinZip select the “best” compression method based on file type to maximize efficiency
• Compress JPEG image files by 20 to 25% with no loss of photo quality or data integrity
• Open and extract from Zip, Zipx, RAR, 7Z, LHA BZ2, CAB, IMG, ISO, and other archive files
• Experience better performance on most files with LZMA compression
• View international characters in filenames through Unicode support
• Create and read Zip files larger than 4GB

Encrypt:
• Secure sensitive data with FIPS-197 certified AES encryption (128- and 256-bit)
• Encrypt and decrypt confidential files and email attachments
• Auto-wipe (“shred”) temporarily extracted copies of encrypted files
• Feel safe knowing Auto-wipe uses the U.S. Department of Defense (DoD 5220.22-M) standard
• Set password policy by controlling complexity requirements
• Set or disable available encryption methods
• Take advantage of hardware support in certain Intel-based computers for even faster AES encryption

Package and Share:
• Bundle files into zipped packages, creating convenient, logical groups of related files
• Organize and secure email attachments, which transmit faster thanks to smaller file sizes
• See the content of Zip file attachments in Outlook 2013 using the Zip file previewer
• Double click on a file in the Zip file previewer for Outlook 2007 to open it for viewing
• View photos in Zip files without extracting, using WinZip’s internal image viewer
• Resize Photos when using Zip and E-Mail
• Quickly create and send Zip files with one-click “Zip & E-Mail”
• Resize photos from a Zip file when sending by email or to a new Zip file
• Use “Send To” to send new and existing Zip files as e-mail attachments
• Use Save As, Rename, and New Folder commands to easily manage Zip files
• Create Self-Extracting Archives with Self-Extractor Personal Edition
• Split Zip files to make large Zip files fit on removable media
• Use Zip from Camera Wizard to quickly transfer, rotate, and compress photos from supported cameras

Backup / Automate:
• Prevent data loss with automated data backup facility
• Burn back-ups to CD or DVD and automatically split them over multiple discs, if necessary
• Upload your back-ups to an off-site server using WinZip’s internal FTP client
• Create custom jobs to automate routine zip tasks
• Schedule jobs to run automatically and unattended
• Utilize predefined WinZip jobs
• Email, FTP upload, or burn Zip files to disc using Job Wizard
• Email log files upon WinZip job completion
• Utilize WinZip’s command line interface for scripting [color=#33cc33](free add-on)

[color=#33cc33][/color]
[img]https://sceper.unblocked.vc/imgp/images/prtQh.jpg[/img] ]]>
The Man from Earth Holocene 2017 1080p BluRay x264 ESub http://glodls.to/torrent.php?id=3129868 http://glodls.to/torrent.php?id=3129868 Thu, 18 Jan 2018 23:07:05 +0000 Movies [url=http://pichub.site/image/Cs08][img]http://pichub.site/images/2018/01/18/81mz-1OEpfL._SL1500_.jpg[/img][/url]
[b]
General
Format : Matroska
Format version : Version 4 / Version 2
File size : 1.82 GiB
Duration : 1 h 40 min
Overall bit rate : 2 608 kb/s

Video
ID : 1
Format : AVC
Format/Info : Advanced Video Codec
Format profile : High@L4.1
Format settings : CABAC / 4 Ref Frames
Format settings, CABAC : Yes
Format settings, ReFrames : 4 frames
Codec ID : V_MPEG4/ISO/AVC
Duration : 1 h 40 min
Bit rate : 2 500 kb/s
Width : 1 920 pixels
Height : 1 080 pixels
Display aspect ratio : 16:9
Frame rate mode : Constant
Frame rate : 23.976 (24000/1001) FPS
Color space : YUV
Chroma subsampling : 4:2:0
Bit depth : 8 bits
Scan type : Progressive
Bits/(Pixel*Frame) : 0.050
Stream size : 1.73 GiB (95%)
Writing library : x264 core 148 r2708 86b7198
Default : Yes
Forced : No

Audio
ID : 3
Format : AAC
Format/Info : Advanced Audio Codec
Format profile : LC
Codec ID : A_AAC-2
Duration : 1 h 40 min
Bit rate : 128 kb/s
Channel(s) : 2 channels
Channel positions : Front: L R
Sampling rate : 44.1 kHz
Frame rate : 43.066 FPS (1024 SPF)
Compression mode : Lossy
Stream size : 91.7 MiB (5%)
Language : English
Default : Yes
Forced : No

Text
ID : 2
Format : UTF-8
Codec ID : S_TEXT/UTF8
Codec ID/Info : UTF-8 Plain Text
Duration : 1 h 38 min
Bit rate : 72 b/s
Count of elements : 1019
Stream size : 52.4 KiB (0%)
Language : English
Default : Yes
Forced : No



[/b]
[url=http://pichub.site/image/CnwX]http://pichub.site/image/CnwX[/url]
[url=http://pichub.site/image/C3FJ]http://pichub.site/image/C3FJ[/url]
[url=http://pichub.site/image/C1E5]http://pichub.site/image/C1E5[/url]
[url=http://pichub.site/image/C9uh]http://pichub.site/image/C9uh[/url]
[url=http://pichub.site/image/CHsj]http://pichub.site/image/CHsj[/url]
[url=http://pichub.site/image/CFar]http://pichub.site/image/CFar[/url]
[/center]
]]>
Derry.Girls.S01E03.HDTV.x264-MTB[ettv] http://glodls.to/torrent.php?id=3129867 http://glodls.to/torrent.php?id=3129867 Thu, 18 Jan 2018 23:06:04 +0000 TV Et TV Shows


Derry.Girls.S01E03.HDTV.x264-MTB


[Format]: Matroska
[Duration]: 23mn 58s
[Resolution]: 720 x 360 pixels
[Display aspect ratio]: 2.000
[Frame rate mode]: Constant
[Frame rate]: 25.000 fps


[color=green][b]#ettv -> To avoid fakes, ALWAYS check that the torrent was added by ettv[/b][/color]



[url]https://www.ettv.tv[/url]

[color=green][b]To keep us going Support us by donating Bitcoin: 3MDamEmgKepqagtQe9eEdQ3NCrWEWjhoL5[/b][/color]

[b]Screens...[/b]

[url]https://extraimage.net/image/jzk2[/url]
[url][/url]
[url][/url]
[url][/url]
[url][/url]
[url][/url]
]]>
WinZip Pro 22 0 Build 12706 (x86 x64) + Crack http://glodls.to/torrent.php?id=3129866 http://glodls.to/torrent.php?id=3129866 Thu, 18 Jan 2018 23:05:31 +0000 Apps
WinZip is the most trusted way to work with compressed files. No other compression utility is as easy-to-use or offers the comprehensive and productivity-enhancing approach that has made WinZip the gold standard for file-compression tools. With the new WinZip 19, you can quickly and securely zip and unzip files to conserve storage space, speed up e-mail transmission, and reduce download times. State-of-the-art file compression, strong AES encryption, compatibility with more compression formats, and new intuitive photo compression, make WinZip 19 the complete compression and archiving solution.

Building on the favorite features of a worldwide base of several million users, WinZip 19 adds new features for image compression and management, support for new compression methods, improved compression performance, support for additional archive formats, and more. Users can work faster, smarter, and safer. ]]>
TeamViewer All Editions 13 0 6447 + Patch http://glodls.to/torrent.php?id=3129865 http://glodls.to/torrent.php?id=3129865 Thu, 18 Jan 2018 23:04:09 +0000 Apps
TeamViewer is an advanced and easy-to-use remote control software that provides all-in-one solution for remote access and support over the internet. TeamViewer allows you to remotely connect to multiple computers even with different systems. It supports Microsoft Windows, Linux, Mac OS X, iOS, Chrome OS, Android, BlackBerry and more. TeamViewer Corporate can be used for remote control, file transfers, online meetings, desktop sharing and web conferencing.

TeamViewer Premium Full Version offers more features than the standard version. Additional features dedicated for advanced security, better device support, and support mobile remote connections. The program uses AES (256-bit) and RSA private/public key exchange (2048-bit) session encryption technology to encrypt the traffic between the local client and the remote host machine. This advanced encryption technology helps you minimize the bad things that might happen when you make a remote connection.

Key Features:

All-in-one solution for every remote control tasks
Fully works behind any firewall and NAT proxy
High performance with international router network
IDs are automatically generated on both computers
Remote administrations with highest security standard
Remote control, desktop sharing and file transfer
Remote control and screen sharing of other devices
Remote any presentations, solutions and services
Supports Windows, Mac, Linux, iOS, Android, etc.
Simple, intuitive, and extremely easy-to-use.

What’s New in TeamViewer 13:

More better, smarter, faster and stronger
Other bug fixes and improvements. ]]>
Syncovery Pro Enterprise 7 95b Build 577 (x86+x64) + Key http://glodls.to/torrent.php?id=3129864 http://glodls.to/torrent.php?id=3129864 Thu, 18 Jan 2018 23:02:44 +0000 Apps
???????????????????????
Syncovery Pro Enterprise 7.95b Build 577 (x86+x64) + Key
???????????????????????
Syncovery - file synchronization and backup software! Your sync and back-up solution is here - now in all-new version 7! Syncovery will copy your files the way you need it. Back up your data and synchronize PCs, Macs, servers, notebooks, and online storage space.

???????????????????????
Installation Instructions
???????????????????????
1. Download & Unpack
2. Follow instructions given in "Readme.txt file
3. That's all, Enjoy!
???????????????????????
Screenshots
???????????????????????

[img]https://s1.postimg.org/9k6uytyjjz/eyukiuif_Tzsqtm6_E1_AJTWlrranv_FObh3.jpg[/img] ]]>
Tyler Perrys Boo 2 A Madea Halloween 2017 720p BRRip x264 ESub http://glodls.to/torrent.php?id=3129863 http://glodls.to/torrent.php?id=3129863 Thu, 18 Jan 2018 23:01:34 +0000 Movies [url=http://pichub.site/image/CW5Q][img]http://pichub.site/images/2018/01/18/b089916056aa605279069d0f1ad96e51.jpg[/img][/url]
[b]

General
Format : Matroska
Format version : Version 4 / Version 2
File size : 929 MiB
Duration : 1 h 40 min
Overall bit rate : 1 286 kb/s

Video
ID : 1
Format : AVC
Format/Info : Advanced Video Codec
Format profile : High@L4.1
Format settings : CABAC / 4 Ref Frames
Format settings, CABAC : Yes
Format settings, ReFrames : 4 frames
Codec ID : V_MPEG4/ISO/AVC
Duration : 1 h 40 min
Bit rate : 1 100 kb/s
Width : 1 280 pixels
Height : 688 pixels
Display aspect ratio : 1.85:1
Frame rate mode : Constant
Frame rate : 23.976 (24000/1001) FPS
Color space : YUV
Chroma subsampling : 4:2:0
Bit depth : 8 bits
Scan type : Progressive
Bits/(Pixel*Frame) : 0.052
Stream size : 787 MiB (85%)
Writing library : x264 core 148 r2708 86b7198
Default : Yes
Forced : No

Audio
ID : 2
Format : AAC
Format/Info : Advanced Audio Codec
Format profile : LC
Codec ID : A_AAC-2
Duration : 1 h 40 min
Bit rate : 192 kb/s
Channel(s) : 6 channels
Channel positions : Front: L C R, Side: L R, LFE
Sampling rate : 48.0 kHz
Frame rate : 46.875 FPS (1024 SPF)
Compression mode : Lossy
Stream size : 140 MiB (15%)
Language : English
Default : Yes
Forced : No

Text
ID : 3
Format : UTF-8
Codec ID : S_TEXT/UTF8
Codec ID/Info : UTF-8 Plain Text
Duration : 1 h 35 min
Bit rate : 114 b/s
Count of elements : 2737
Stream size : 80.5 KiB (0%)
Language : English
Default : Yes
Forced : No

Menu
00:00:00.000 : en:00:00:00.000
00:05:44.761 : en:00:05:44.761
00:11:32.567 : en:00:11:32.567
00:18:08.838 : en:00:18:08.838
00:23:46.925 : en:00:23:46.925
00:31:24.424 : en:00:31:24.424
00:37:38.631 : en:00:37:38.631
00:44:37.133 : en:00:44:37.133
00:51:59.867 : en:00:51:59.867
00:57:43.168 : en:00:57:43.168
00:59:53.465 : en:00:59:53.465
01:04:36.581 : en:01:04:36.581
01:08:27.353 : en:01:08:27.353
01:15:04.500 : en:01:15:04.500
01:19:55.874 : en:01:19:55.874
01:25:47.893 : en:01:25:47.893


[/b]
[url=http://pichub.site/image/CQ8k]http://pichub.site/image/CQ8k[/url]
[url=http://pichub.site/image/Cbqv]http://pichub.site/image/Cbqv[/url]
[url=http://pichub.site/image/Cjyd]http://pichub.site/image/Cjyd[/url]
[url=http://pichub.site/image/Cq09]http://pichub.site/image/Cq09[/url]
[url=http://pichub.site/image/h4Fu]http://pichub.site/image/h4Fu[/url]
[url=http://pichub.site/image/hJdR]http://pichub.site/image/hJdR[/url]
[/center]
]]>
Stellar Phoenix Video Repair 3 0 0 0 + Crack http://glodls.to/torrent.php?id=3129862 http://glodls.to/torrent.php?id=3129862 Thu, 18 Jan 2018 23:01:11 +0000 Apps
Stellar Phoenix Video Repair lets you repair corrupted or damaged video
files from storage media like flash drives, memory cards, hard disks, external
hard disks. Some of the most common causes that lead to corruption of are changes in
format, file header corruption, improper system shutdown, file read and write errors, virus
attacks, improper download and compression issues. Stellar Phoenix Video Repair repairs different
types of video files like WMV, ASF, MOV, MP4, M4V, 3G2, 3GP and F4V damaged due to any of the
reasons listed above. You can preview repaired Videos before saving them in the computer. ]]>
Death In Paradise S07E03 720p HDTV x264-ORGANiC http://glodls.to/torrent.php?id=3129814 http://glodls.to/torrent.php?id=3129814 Thu, 18 Jan 2018 23:00:08 +0000 TV http://www.tvrage.com/schedule.php?show_yesterday=1. ]]> Death In Paradise S07E03 HDTV x264-ORGANiC http://glodls.to/torrent.php?id=3129813 http://glodls.to/torrent.php?id=3129813 Thu, 18 Jan 2018 23:00:06 +0000 TV http://www.tvrage.com/schedule.php?show_yesterday=1. ]]> Hunted 2015 S03E03 720p HDTV x264-QPEL http://glodls.to/torrent.php?id=3129812 http://glodls.to/torrent.php?id=3129812 Thu, 18 Jan 2018 23:00:03 +0000 TV http://www.tvrage.com/schedule.php?show_yesterday=1. ]]> ReviverSoft PC Reviver 3 3 2 6 (x86+x64) + Crack http://glodls.to/torrent.php?id=3129811 http://glodls.to/torrent.php?id=3129811 Thu, 18 Jan 2018 22:58:47 +0000 Apps
Improve and Optimize
• PC Reviver includes advanced diagnostic tools that will perform a comprehensive and complete scan to find problems with your PC. PC Reviver will safely fix these problems and perform other optimizations to restore optimum performance and stability to your PC.

Manage and Maintain
• Safely and securely delete old, unused and junk items to free up space and memory to give your PC a boost. Set reminders and schedule tasks to perform automatically to ensure that your PC continues to perform at its best.

Learn and Understand
• Direct access to our ever growing library of informative articles and instructional videos will help you get the most from your PC and hardware, and learn more about how to Love Your Computer Again™.

Trusted and Recommended
• ReviverSoft products have been awarded the highest of accolades from industry experts including PC World, Digital Trends, CNet, LAPTOP Mag and many others. You can be rest assured that your PC is in safe hands with PC Reviver.

PC Reviver Features:

Driver Backup
• Create a secure Backup of your PC drivers in the event that you need to restore them at a later date.
Startup Manager
• Choose which programs and services launch on Windows Startup to improve boot times and overall PC performance and stability.
Uninstall Manager
• Manage all installed applications and thoroughly uninstall programs based on recommendations or at will.
Registry Defrag
• Safely optimize your Registry by compressing its hives making it smaller, more compact and therefore more efficient.
Crash Helper
• Find out why your computer is crashing (or has crashed) and find a solution to the cause.
File Extension Manager
• Manage what application is used to open a specific file extension.
Process Library
• View the processes operating on your system quickly and easily.
System Information (Coming soon for Win XP)
• View and save a report detailing your system information including software and hardware settings, and other useful information.
Community
• Direct access to our community of experts to answer any of your technology related questions.
Registry Cleaner
• Identifies errors in your Windows Registry and quickly and safely repairs these errors to restore optimum performance and stability.
Driver Updater
• Identifies all out of date and obsolete drivers and quickly installs current drivers, sourced directly from the original manufacturer.
Disk Cleaner
• Thoroughly clean privacy tracks, delete cache and other temporary data that can take up valuable disk space and cause security issues.
Windows Updater
• Quickly and easily check for updates to Windows and safely uninstall previous installations. ]]>
Remote Desktop Manager Enterprise 13 0 7 0 + Keygen http://glodls.to/torrent.php?id=3129810 http://glodls.to/torrent.php?id=3129810 Thu, 18 Jan 2018 22:56:49 +0000 Apps
???????????????????????
Remote Desktop Manager Enterprise 13 0 7 0 + Keygen
???????????????????????
Remote Desktop Manager is a small apgfplication used to manage all your remote connections and virtual machines. Add, edit, delete, shared, organize and find your remote connection quickly. Compatible with Microsoft Remote Desktop, Termfinal Services, VNC, LogMeIn, Team Viewer, Ftp, SSH, Telnet, Dameware, X Window, VMware, Virtual PC, PC Anywhere, Hyper-V, Citrix, Radmin, Microsoft Remote Assistance, Sun Virtual Box and more.

.
???????????????????????
Installation Instructions
???????????????????????
1. Download & Unpack
2. Follow instructions given in "Readme.txt file
3. That's all, Enjoy!
???????????????????????
Screenshots
??????????????????????

[img]https://sanet.pics/storage-2/1216/pqCgC56s7PLqtoIQJskydpvpUp7atM7T.jpg[/img] ]]>
n-Track Studio EX 9 0 0 3500 Beta (x64) + Crack http://glodls.to/torrent.php?id=3129809 http://glodls.to/torrent.php?id=3129809 Thu, 18 Jan 2018 22:55:19 +0000 Apps
n-Track Studio 9 turns your PC into an easy to use multitrack
audio recording studio. It is the perfect tool for professional quality
audio recording, encoding, mixing and editing. Record, edit, overdub your audio
tracks, apply effects, process audio live input, mix and then burn audio CDs or create
mp3 files. n-Track Studio is an Audio and MIDI Digital Multitrack Recorder that transforms your
computer into a powerful audio recording studio. ]]>
NCH PhotoStage Slideshow Producer Professional 4 18 Beta + Crack http://glodls.to/torrent.php?id=3129808 http://glodls.to/torrent.php?id=3129808 Thu, 18 Jan 2018 22:52:35 +0000 Apps
An extensive application that provides you with the tools necessary
to create slideshow presentations from scratch, by using image, audio and video files.

1. Download & Unpack
2. Follow instructions given in "Readme.txt file
3. That's all, Enjoy! ]]>
The 13th Friday 2017 720p WEB-DL x264 http://glodls.to/torrent.php?id=3129807 http://glodls.to/torrent.php?id=3129807 Thu, 18 Jan 2018 22:51:25 +0000 Movies [img]http://pichub.site/images/2018/01/18/MV5BODViZDQwZDctYmUxZC00MTc5LTkyOWQtZmJiNDIzYmY1ZDRiXkEyXkFqcGdeQXVyMTM5ODAyMjc._V1_QL50_.jpg[/img]
[b]
General
Format : Matroska
Format version : Version 4 / Version 2
File size : 828 MiB
Duration : 1 h 35 min
Overall bit rate : 1 210 kb/s

Video
ID : 1
Format : AVC
Format/Info : Advanced Video Codec
Format profile : High@L4.1
Format settings : CABAC / 4 Ref Frames
Format settings, CABAC : Yes
Format settings, ReFrames : 4 frames
Codec ID : V_MPEG4/ISO/AVC
Duration : 1 h 35 min
Bit rate : 1 100 kb/s
Width : 1 280 pixels
Height : 552 pixels
Display aspect ratio : 2.35:1
Frame rate mode : Constant
Frame rate : 23.976 (24000/1001) FPS
Color space : YUV
Chroma subsampling : 4:2:0
Bit depth : 8 bits
Scan type : Progressive
Bits/(Pixel*Frame) : 0.065
Stream size : 740 MiB (89%)
Writing library : x264 core 148 r2708 86b7198
Default : Yes
Forced : No

Audio
ID : 2
Format : AAC
Format/Info : Advanced Audio Codec
Format profile : LC
Codec ID : A_AAC-2
Duration : 1 h 35 min
Bit rate : 126 kb/s
Channel(s) : 2 channels
Channel positions : Front: L R
Sampling rate : 48.0 kHz
Frame rate : 46.875 FPS (1024 SPF)
Compression mode : Lossy
Stream size : 86.2 MiB (10%)
Language : English
Default : Yes
Forced : No

Menu
00:00:00.000 : en:1
00:09:28.068 : en:2
00:18:57.387 : en:3
00:34:25.523 : en:4
00:43:40.244 : en:5
00:53:22.409 : en:6
01:04:10.472 : en:7
01:17:53.044 : en:8
01:33:05.581 : en:9



[/b]
[url=http://pichub.site/image/CRk8]http://pichub.site/image/CRk8[/url]
[url=http://pichub.site/image/CDH5]http://pichub.site/image/CDH5[/url]
[url=http://pichub.site/image/CdDh]http://pichub.site/image/CdDh[/url]
[url=http://pichub.site/image/C7gj]http://pichub.site/image/C7gj[/url]
[url=http://pichub.site/image/CkYk]http://pichub.site/image/CkYk[/url]
[url=http://pichub.site/image/CVnr]http://pichub.site/image/CVnr[/url]
[/center]
]]>
MediaMonkey Gold 4 1 20 1860 Beta + Keygen http://glodls.to/torrent.php?id=3129806 http://glodls.to/torrent.php?id=3129806 Thu, 18 Jan 2018 22:47:49 +0000 Apps
MediaMonkey is a music manager and media jukebox for serious music
collectors and iPod users. It catalogs your CDs, OGG, WMA, MPC, FLAC, APE,
WAV and MP3 audio files. It looks up missing Album Art and track information via Freedb
and the web, and includes an intelligent tag editor and an automated file and directory renamer
to organize your music library. It includes a CD ripper, CD/DVD Burner, and audio converter for saving
music, and manual or automated playlist editors for creating music mixes.

1. Download & Unpack
2. Follow instructions given in "Readme.txt file
3. That's all, Enjoy!

[img]https://s1.postimg.org/1v87v87s27/Media_Monkey-_Gold-_Full-_Version-_Crack.jpg[/img] ]]>
Malwarebytes Anti-Exploit Premium 1 11 1 48 + Keygen http://glodls.to/torrent.php?id=3129805 http://glodls.to/torrent.php?id=3129805 Thu, 18 Jan 2018 22:46:28 +0000 Apps
Popular software programs contain millions of line of code.
Bad guys exploit flaws (vulnerabilities) in the code to deliver malware.
Except when they can’t. Malwarebytes Anti-Exploit wraps three layers of security around
popular browsers and applications, preventing exploits from compromising vulnerable code. Not an
antivirus, but compatible with most antivirus, Malwarebytes Anti-Exploit is a small, specialized shield
designed to protect you against one of the most dangerous forms of malware attacks.

[img]https://s7.postimg.org/u1ywwby6z/EAmrok7jjp_Yrr9_Ozch794fn_CGa9_N7f_CM.jpg[/img] ]]>
Internet Download Manager (IDM) 6 30 Build 2 + Crack [Fixed Fake Serial] http://glodls.to/torrent.php?id=3129804 http://glodls.to/torrent.php?id=3129804 Thu, 18 Jan 2018 22:44:00 +0000 Apps
Internet Download Manager IDM Crack 6.30 build 2 Patch full version free download is 100% working idm download, fake serial Number is also fixed permanently, is a downloading software and become choice of millions of people around the world especially for those who are looking for to speed up downloading process of HD 1080p , 720p videos from video hosting websites especially youtube including several other belong to same niche. IDM crack has built in smart logical downloading mechanism that can join multipart downloaded files into single file to server end users for what exactly user is looking for without breaking or losing a single byte instead the way Internet Download Manager crack works it not only increase the speed of downloaded files it can also help to decrease the time to download a particular time period.
Internet Download Manager with Crack contains an expansive problem solving framework with pause-n-resume download feature. These could restart interrupted download files because of internet connectivity issue or data limit reach problem of your internet bundle, framework issues, lost of power or power disconnection or sudden halt operating system during downloading process. IDM Serial Key has an essential GUI, which makes it easy to use, or in case you slant toward, you can use Internet Download Manager from the command prompt or CMD in windows 10 or other modern operating system through command line features of idm crack. ]]>
LBJ 2016 720p BluRay x264 ESub http://glodls.to/torrent.php?id=3129803 http://glodls.to/torrent.php?id=3129803 Thu, 18 Jan 2018 22:42:43 +0000 Movies [img]http://pichub.site/images/2018/01/18/LBJ-Final-Artwork_For-Relea.jpg[/img]
[b]
General
Format : Matroska
Format version : Version 4 / Version 2
File size : 889 MiB
Duration : 1 h 37 min
Overall bit rate : 1 280 kb/s

Video
ID : 1
Format : AVC
Format/Info : Advanced Video Codec
Format profile : High@L4.1
Format settings : CABAC / 4 Ref Frames
Format settings, CABAC : Yes
Format settings, ReFrames : 4 frames
Codec ID : V_MPEG4/ISO/AVC
Duration : 1 h 37 min
Bit rate : 1 100 kb/s
Width : 1 280 pixels
Height : 688 pixels
Display aspect ratio : 1.85:1
Frame rate mode : Constant
Frame rate : 23.976 (24000/1001) FPS
Color space : YUV
Chroma subsampling : 4:2:0
Bit depth : 8 bits
Scan type : Progressive
Bits/(Pixel*Frame) : 0.052
Stream size : 754 MiB (85%)
Writing library : x264 core 148 r2708 86b7198
Default : Yes
Forced : No

Audio
ID : 2
Format : AAC
Format/Info : Advanced Audio Codec
Format profile : LC
Codec ID : A_AAC-2
Duration : 1 h 37 min
Bit rate : 192 kb/s
Channel(s) : 6 channels
Channel positions : Front: L C R, Side: L R, LFE
Sampling rate : 48.0 kHz
Frame rate : 46.875 FPS (1024 SPF)
Compression mode : Lossy
Stream size : 133 MiB (15%)
Language : English
Default : Yes
Forced : No

Text
ID : 3
Format : UTF-8
Codec ID : S_TEXT/UTF8
Codec ID/Info : UTF-8 Plain Text
Duration : 1 h 30 min
Bit rate : 89 b/s
Count of elements : 1392
Stream size : 59.5 KiB (0%)
Language : English
Default : Yes
Forced : No

Menu
00:00:00.000 : en:00:00:00.000
00:08:09.864 : en:00:08:09.864
00:13:52.790 : en:00:13:52.790
00:22:31.392 : en:00:22:31.392
00:30:58.315 : en:00:30:58.315
00:34:07.212 : en:00:34:07.212
00:41:09.592 : en:00:41:09.592
00:45:02.867 : en:00:45:02.867
00:48:20.314 : en:00:48:20.314
00:54:33.812 : en:00:54:33.812
00:58:32.926 : en:00:58:32.926
01:02:53.728 : en:01:02:53.728
01:09:50.770 : en:01:09:50.770
01:17:20.386 : en:01:17:20.386
01:23:43.852 : en:01:23:43.852
01:30:50.654 : en:01:30:50.654



[/b]

[url=http://pichub.site/image/hY3B]http://pichub.site/image/hY3B[/url]
[url=http://pichub.site/image/hMus]http://pichub.site/image/hMus[/url]
[url=http://pichub.site/image/hO86]http://pichub.site/image/hO86[/url]
[url=http://pichub.site/image/hIIY]http://pichub.site/image/hIIY[/url]
[url=http://pichub.site/image/hRlt]http://pichub.site/image/hRlt[/url]
[url=http://pichub.site/image/hD44]http://pichub.site/image/hD44[/url]
[/center]
]]>
Foxit PhantomPDF Business 9 0 1 1049 + Patch http://glodls.to/torrent.php?id=3129802 http://glodls.to/torrent.php?id=3129802 Thu, 18 Jan 2018 22:42:32 +0000 Apps
Complete Business Ready PDF solution that expands upon PhantomPDF Standard by offering advanced editing, shared review initiation, higher security, additional file compression, PDF A/E/X creation, and bates numbering.

Features :

Edit Text
Edit text in a paragraph without worrying about layout – text will automatically reflow as you edit. After editing, spell check the document.
Advanced Text Editing
Advanced editing capabilities for PDF documents with more complex layout. Link, join, or split text blocks to connect text for more powerful editing. Move and resize text blocks to change to a more compelling layout.
Advanced Object Editing
Edit images, objects, and object shading. Change text to shape. Change page layout properties, add shading to objects, convert text to path, merge/split text, and edit .ai files.
Modify And Format Text
Edit the font of PDF text by changing type, style, size, color, and effect. Align text left, center, or right, while choosing from multiple line spacing options.
Professionalize Documents
Customize the way your PDF looks by adding or modifying stamps, watermarks, headers, footers, and backgrounds to generate professional looking PDFs.
Insert Objects, Images, & Videos
Embed images and videos in your PDF and make it more interactive. Align objects on the left, middle, or center. Distribute objects horizontally or vertically. Rotate, flip, or shear objects.
Create Industry-Standard PDF
Create PDF’s from hundreds of the most common file types that are 100% compatible with other PDF products. Reduce file size before you distribute or archive to save transfer time and disk space.
Export PDF To Word & Other Formats
Easily share PDF content by exporting to MS Word, PowerPoint and Excel, RTF, HTML, XML, text, and image formats.
Create PDF from Microsoft Office, Outlook, and Visio
Create PDF with integrated, fully functional Word, PowerPoint, Excel, Outlook, and Visio add-ins.

[img]https://s10.postimg.org/6qo0qhmvd/th_c_Onniji_JQXRLCBr_Ivp_En_N44u_TZk8rb2_D.png%5B/img%5D%5Bimg%5Dhttps://s1.postimg.org/5xe37nw03z/imgingest-985864597380259259.png[/img] ]]>
Linkin Park One More Light [2017] FLAC CD http://glodls.to/torrent.php?id=3129801 http://glodls.to/torrent.php?id=3129801 Thu, 18 Jan 2018 22:40:06 +0000 FLAC i.NFO : [url=https://z0x.us/v250a2]https://z0x.us/v250a2[/url] : Linkin_Park-One_More_Light-CD-FLAC-2017-RiBS + MP3-VBRV0-CD

-----------------------------------------------------------------------------------
GloDLs ::: IF YOU LIKE THIS RELEASE THEN GO TO THE STORE AND STEAL THE ORIGINAL ...
------------------------------------------------------------------- gheTTo © 1914

[img]http://s1.bild.me/bilder/110417/46633631362678LP.png[/img][/center]
]]>
Godzilla Monster Planet 2017 1080p WEB-DL DD5 1 x264 TiTAN http://glodls.to/torrent.php?id=3129800 http://glodls.to/torrent.php?id=3129800 Thu, 18 Jan 2018 22:40:00 +0000 Movies COVER:
https://tinizo.com/upload/small/2018/01/18/5a612219e503c.jpg

ACTORS:
Chris Niosi, Lucien Dodge, Kana Hanazawa, Ken'yû Horiuchi, Yuki Kaji, Kenta Miyake,

RELEASED:
17 January 2018

IMDB: https://www.imdb.com/title/tt5979874/



Size: 2774746823 bytes (2.58 GiB), duration: 01:28:30, avg.bitrate: 4180 kb/s
Audio: ac3, 48000 Hz, 5:1 (eng)
Video: h264, yuv420p, 1920x1080, 24.00 fps(r)




SCREENS:
[url=https://tinizo.com/img-5a61221a2e9d1.html[/url]

[url]https://tinizo.com/img-5a61221a4041b.html[/url]

[url]https://tinizo.com/img-5a61221a50a02.html[/url]


DOWNLOAD AND ENJOY.

KEEP IT FOR LONG SEEDING TO HELP OTHERS


Thanks to : TiTAN
Movie Share ]]>
Ed Sheeran Divide [2017] FLAC ÷ CD http://glodls.to/torrent.php?id=3129799 http://glodls.to/torrent.php?id=3129799 Thu, 18 Jan 2018 22:38:36 +0000 FLAC
[url=https://dbr.ee/zTtc]https://dbr.ee/zTtc[/url] : Ed_Sheeran-Divide-(Deluxe_Edition)-2017-RiBS

FLAC + MP3-V0-CD Ed_Sheeran-Divide-Deluxe_Edition-CD-FLAC-2017-RiBS
--------------------------------------------------------------------  
[url=https://itunes.apple.com/us/album/deluxe/id1193701079]https://itunes.apple.com/us/album/deluxe/id1193701079[/url] ::: Album Info
--------------------------------------------------------------------

GloDLs ????????????????????????????????????????????????????????????????
IF YOU LIKE THIS RELEASE THEN GO TO THE STORE AND STEAL THE ORIGINAL
---------------------------------------------------- CAPAJEBO © 1914

????????????????????????????????????????????????????????????????????[/center] ]]>
Foxit PhantomPDF Business 9 0 1 1049 + Crack http://glodls.to/torrent.php?id=3129798 http://glodls.to/torrent.php?id=3129798 Thu, 18 Jan 2018 22:38:34 +0000 Apps
Complete Business Ready PDF solution that expands upon PhantomPDF
Standard by offering advanced editing, shared review initiation, higher security,
additional file compression, PDF A/E/X creation, and bates numbering.
Edit Text
Edit text in a paragraph without worrying about layout - text will
automatically reflow as you edit. After editing, spell check the document.

[img]https://s1.postimg.org/5xe37nw03z/imgingest-985864597380259259.png[/img] ]]>
Jigsaw 2017 1080p BluRay x264 AC3 5 1 ESub http://glodls.to/torrent.php?id=3129797 http://glodls.to/torrent.php?id=3129797 Thu, 18 Jan 2018 22:37:59 +0000 Movies [url=http://pichub.site/image/y5b9][img]http://pichub.site/images/2018/01/18/Jigsaw-2017-credit-lionsgate-twisted-pictures.jpg[/img][/url]

[b]
General
Format : Matroska
Format version : Version 4 / Version 2
File size : 1.75 GiB
Duration : 1 h 31 min
Overall bit rate : 2 732 kb/s

Video
ID : 1
Format : AVC
Format/Info : Advanced Video Codec
Format profile : High@L4.1
Format settings : CABAC / 4 Ref Frames
Format settings, CABAC : Yes
Format settings, ReFrames : 4 frames
Codec ID : V_MPEG4/ISO/AVC
Duration : 1 h 31 min
Bit rate : 2 468 kb/s
Nominal bit rate : 2 600 kb/s
Width : 1 904 pixels
Height : 804 pixels
Display aspect ratio : 2.35:1
Frame rate mode : Constant
Frame rate : 23.976 (24000/1001) FPS
Color space : YUV
Chroma subsampling : 4:2:0
Bit depth : 8 bits
Scan type : Progressive
Bits/(Pixel*Frame) : 0.067
Stream size : 1.59 GiB (90%)
Writing library : x264 core 148 r2708 86b7198
Default : Yes
Forced : No

Audio
ID : 2
Format : AC-3
Format/Info : Audio Coding 3
Codec ID : A_AC3
Duration : 1 h 31 min
Bit rate mode : Constant
Bit rate : 256 kb/s
Channel(s) : 6 channels
Channel positions : Front: L C R, Side: L R, LFE
Sampling rate : 48.0 kHz
Frame rate : 31.250 FPS (1536 SPF)
Bit depth : 16 bits
Compression mode : Lossy
Stream size : 168 MiB (9%)
Service kind : Complete Main
Default : Yes
Forced : No

Text
ID : 3
Format : VobSub
Muxing mode : zlib
Duration : 1 h 31 min
Bit rate : 6 600 b/s
Count of elements : 1343
Stream size : 4.31 MiB (0%)
Language : English
Default : Yes
Forced : No



[/b]
[url=http://pichub.site/image/y2pd]http://pichub.site/image/y2pd[/url]
[url=http://pichub.site/image/yPvR]http://pichub.site/image/yPvR[/url]
[url=http://pichub.site/image/y6cu]http://pichub.site/image/y6cu[/url]
[url=http://pichub.site/image/yX9s]http://pichub.site/image/yX9s[/url]
[url=http://pichub.site/image/y3gY]http://pichub.site/image/y3gY[/url]
[url=http://pichub.site/image/yZX6]http://pichub.site/image/yZX6[/url]
[/center]
]]>
COLDPLAY A HEAD FULL OF DREAMS 2015 FLAC CD PERFECT http://glodls.to/torrent.php?id=3129796 http://glodls.to/torrent.php?id=3129796 Thu, 18 Jan 2018 22:37:04 +0000 FLAC
COLDPLAY A HEAD FULL OF DREAMS 2015 FLAC CD PERFECT (C) 1914

[url=https://z0x.us/v34c8c]https://z0x.us/v34c8c[/url]

[img]http://s1.bild.me/bilder/030315/1107515Coldplay-A_Head_Full_Of_Dreams-CD-FLAC-2015-PERFECT.jpg[/img][/center] ]]>
ESET NOD32 Antivirus 11 0 159 0 + Crack http://glodls.to/torrent.php?id=3129795 http://glodls.to/torrent.php?id=3129795 Thu, 18 Jan 2018 22:36:54 +0000 Apps
Explore the Internet with our industry-leading anti-malware solution. Designed to be as light as possible on your system, it’s built on ESET’s legendary NOD32 detection technology. Includes a special gamer mode that lets you play on without interruption, plus Anti-Phishing to block scammers.

Go explore the Internet, freely
We want you to experience the Internet as it was meant to be - without worries. Experience the award-winning ESET NOD32® detection technology. You get fast and powerful anti-malware protection, whether you are surfing the Internet, working, or gaming.

Antivirus and Anti-Phishing
Spend much time online?Securely browse the Internet with Antivirus, Antispyware and Exploit Blocker. Steer clear of fake websites thanks to Anti-Phishing.

Signature-light footprint
We've built it to be light on your system, leaving more power to the programs you use daily.

Signature-light footprint
We've built it to be light on your system, leaving more power to the programs you use daily.

Key Features and Benefits:
ESET Live Grid – Cloud-powered scanning delivers optimized real-time protection against Internet threats and social media exploits.
Gamer Mode – Lets you focus on your online sessions or important work tasks without distractions.
Energy Saving Mode – Identifies when laptop is running on battery and automatically postpones scheduled tasks alerting you before larger update downloads.
Smart Detection – Smart Detection of malware utilizing advanced heuristic detection technology protects you from unknown threats and flags unfamiliar mutations of known malware.
Enhanced Media Control – Automatically scans all USB flash drives, memory cards and CDs/DVDs. Block removable media based on type of media, manufacturer, size and other attributes.
Advanced HIPS Functionality – This one is for real geeks – now you can customize the behavior of the system in greater detail: specify rules for the system registry, active processes and programs, and fine-tune your security posture.
Light Footprint – It is a smart solution with extremely low system footprint ensuring fast and smooth performance for a continual level of security.
Advanced memory scanner provides protection against obfuscated threats
Exploit blocker protects browsers and other popular applications from threats exploiting vulnerabilities in these applications
Improved cleaning of rootkits ensures that even in case of infection with persistent malware, the system will be restored to a working malware-free state
Device control allows for controlling access to removable devices
Automatic first time scan cleans potential malware on the computer and improves performance of future scans

[img]https://2.bp.blogspot.com/-13qG9Ssb0Uk/WfY85mU4FOI/AAAAAAAABTY/vHXbkTVl0R43-EBHR_9uJUSJ0siEEXNVACLcBGAs/s640/ESET-Smart-Security-9-Lifetime-Activation-key-Crack-FREE.png[/img] ]]>
Godzilla Monster Planet 2017 720p WEB-DL DD5 1 x264 TiTAN http://glodls.to/torrent.php?id=3129794 http://glodls.to/torrent.php?id=3129794 Thu, 18 Jan 2018 22:36:54 +0000 Movies COVER:
https://tinizo.com/upload/small/2018/01/18/5a61216b56093.jpg

ACTORS:
Chris Niosi, Lucien Dodge, Kana Hanazawa, Ken'yû Horiuchi, Yuki Kaji, Kenta Miyake,

RELEASED:
17 January 2018

IMDB: https://www.imdb.com/title/tt5979874/



Size: 1967242417 bytes (1.83 GiB), duration: 01:28:30, avg.bitrate: 2964 kb/s
Audio: ac3, 48000 Hz, 5:1 (eng)
Video: h264, yuv420p, 1280x720, 24.00 fps(r)




SCREENS:
[url=https://tinizo.com/img-5a61216b8c696.html[/url]

[url]https://tinizo.com/img-5a61216b965c6.html[/url]

[url]https://tinizo.com/img-5a61216b9e524.html[/url]


DOWNLOAD AND ENJOY.

KEEP IT FOR LONG SEEDING TO HELP OTHERS


Thanks to : TiTAN
Movie Share ]]>
ESET NOD32 Antivirus 11 0 159 0 (x86+x64) + Crack http://glodls.to/torrent.php?id=3129793 http://glodls.to/torrent.php?id=3129793 Thu, 18 Jan 2018 22:35:13 +0000 Apps
Explore the Internet with our industry-leading anti-malware
solution. Designed to be as light as possible on your system, it’s
built on ESET’s legendary NOD32 detection technology. Includes a special
gamer mode that lets you play on without interruption, plus Anti-Phishing to block scammers.


[img]https://s31.postimg.org/firfc6iaj/LQHe_Z6_TDpkt_H8bh_T1_Zimo_Ps_Uh1uim_Uw7.jpg[/img] ]]>
ESET Internet Security 11 0 159 0 + Crack http://glodls.to/torrent.php?id=3129792 http://glodls.to/torrent.php?id=3129792 Thu, 18 Jan 2018 22:33:51 +0000 Apps
ESET Internet Security 11 offers the ultimate defense of your
PC against all types of malware, cybercrime, junk mail and hackers. It
has added firewall and antispam technology to ESET NOD32 Antivirus. It utilizes
the power of the cloud and multiple layers of detection to keep out threats. As a result,
it block all potential attacks. Also protects you at the highest level while you work, social network,
play online games or exchange data via removable media.

[img]https://s10.postimg.org/42ox4znrd/ESETInternet_Security10-768x563.png[/img] ]]>